Download J. Berends New Song 10-25-12 mp3 | Lo Que La Verdad Esconde BluRayRip AC3 5.1 | Shannon PooleThiti Vechabul | RSS Feed | Dream Nightmare 2016

Doctor X 2012 Season 01 Episode 01 720p WEBRip x264 Hindi Dubbed ...

  • Category Movies
  • Type Dubs/Dual Audio
  • Language Hindi
  • Total size 677.9 MB
  • Uploaded By moviezworldz
  • Downloads 479
  • Last checked 2 days ago
  • Date uploaded 1 month ago
  • Seeders 0
  • Leechers 1

Infohash : 86AEA3ED75FA1DC592FCB36D618E155E260452F3




Doctor X 2012 Season 01 Episode 01 720p WEBRip x264 Hindi Dubbed Exclusive




General
Format : Matroska
Format version : Version 4 / Version 2
File size : 678 MiB
Duration : 58 min 20 s
Overall bit rate : 1 624 kb/s

Video
ID : 1
Format : AVC
Format/Info : Advanced Video Codec
Format profile : [email protected]
Format settings : CABAC / 4 Ref Frames
Format settings, CABAC : Yes
Format settings, RefFrames : 4 frames
Codec ID : V_MPEG4/ISO/AVC
Duration : 58 min 20 s
Bit rate : 1 400 kb/s
Width : 1 280 pixels
Height : 720 pixels
Display aspect ratio : 16:9
Frame rate mode : Constant
Frame rate : 29.970 (30000/1001) FPS
Color space : YUV
Chroma subsampling : 4:2:0
Bit depth : 8 bits
Scan type : Progressive
Bits/(Pixel*Frame) : 0.051
Stream size : 597 MiB (88%)
Writing library : x264 core 148 r2708 86b7198
Default : Yes
Forced : No

Audio
ID : 2
Format : AAC
Format/Info : Advanced Audio Codec
Format profile : LC
Codec ID : A_AAC-2
Duration : 58 min 20 s
Bit rate : 192 kb/s
Channel(s) : 2 channels
Channel positions : Front: L R
Sampling rate : 44.1 kHz
Frame rate : 43.066 FPS (1024 SPF)
Compression mode : Lossy
Stream size : 80.1 MiB (12%)
Language : Hindi
Default : Yes
Forced : No













Files:

Doctor X 2012 Season 01 Episode 01 720p WEBRip x264 Hindi Dubbed Exclusive
  • Doctor X 2012 Season 01 Episode 01 720p WEBRip x264 Hindi Dubbed Exclusive.mkv (677.9 MB)

Comments

Code:

  • udp://tracker.pirateparty.gr:6969/announce
  • udp://tracker.opentrackr.org:1337/announce
  • http://tracker.opentrackr.org/announce
  • udp://tracker.vanitycore.co:6969/announce
  • udp://public.popcorn-tracker.org:6969/announce
  • udp://9.rarbg.to:2710/announce
  • udp://9.rarbg.me:2710/announce
  • udp://9.rarbg.com:2770/announce
  • udp://inferno.demonoid.pw:3391/announce
  • udp://tracker.internetwarriors.net:1337/announce
  • udp://ipv4.tracker.harry.lu:80/announce
  • udp://p4p.arenabg.ch:1337/announce
  • http://tracker.vanitycore.co:6969/announce
  • http://public.popcorn-tracker.org:6969/announce
  • udp://tracker.zer0day.to:1337/announce