Goldrausch in Australien | Watch movie | Haikyuu!! Season 2 + Extras | 720p | BD HEVC | Dual AudioHard Sun | Case Histories | Floating

Doctor X 2012 Season 01 Episode 02 720p WEBRip x264 Hindi Dubbed ...

  • Category Movies
  • Type Dubs/Dual Audio
  • Language Hindi
  • Total size 565.8 MB
  • Uploaded By moviezworldz
  • Downloads 294
  • Last checked 1 day ago
  • Date uploaded 1 month ago
  • Seeders 0
  • Leechers 2

Infohash : 8DAAF28E2D48FB53FF3617DC010C2B311BD728C0




Doctor X 2012 Season 01 Episode 02 720p WEBRip x264 Hindi Dubbed Exclusive




General
Format : Matroska
Format version : Version 4 / Version 2
File size : 566 MiB
Duration : 45 min 43 s
Overall bit rate : 1 730 kb/s

Video
ID : 1
Format : AVC
Format/Info : Advanced Video Codec
Format profile : [email protected]
Format settings : CABAC / 4 Ref Frames
Format settings, CABAC : Yes
Format settings, RefFrames : 4 frames
Codec ID : V_MPEG4/ISO/AVC
Duration : 45 min 43 s
Bit rate : 1 500 kb/s
Width : 1 280 pixels
Height : 720 pixels
Display aspect ratio : 16:9
Frame rate mode : Constant
Frame rate : 29.970 (30000/1001) FPS
Color space : YUV
Chroma subsampling : 4:2:0
Bit depth : 8 bits
Scan type : Progressive
Bits/(Pixel*Frame) : 0.054
Stream size : 502 MiB (89%)
Writing library : x264 core 148 r2708 86b7198
Default : Yes
Forced : No

Audio
ID : 2
Format : AAC
Format/Info : Advanced Audio Codec
Format profile : LC
Codec ID : A_AAC-2
Duration : 45 min 43 s
Bit rate : 192 kb/s
Channel(s) : 2 channels
Channel positions : Front: L R
Sampling rate : 44.1 kHz
Frame rate : 43.066 FPS (1024 SPF)
Compression mode : Lossy
Stream size : 62.8 MiB (11%)
Language : Hindi
Default : Yes
Forced : No












Files:

Doctor X 2012 Season 01 Episode 02 720p WEBRip x264 Hindi Dubbed Exclusive
  • Doctor X 2012 Season 01 Episode 02 720p WEBRip x264 Hindi Dubbed Exclusive.mkv (565.8 MB)

There are currently no comments. Feel free to leave one :)

Code:

  • udp://tracker.pirateparty.gr:6969/announce
  • udp://tracker.opentrackr.org:1337/announce
  • http://tracker.opentrackr.org/announce
  • udp://tracker.vanitycore.co:6969/announce
  • udp://public.popcorn-tracker.org:6969/announce
  • udp://9.rarbg.to:2710/announce
  • udp://9.rarbg.me:2710/announce
  • udp://9.rarbg.com:2770/announce
  • udp://inferno.demonoid.pw:3391/announce
  • udp://tracker.internetwarriors.net:1337/announce
  • udp://ipv4.tracker.harry.lu:80/announce
  • udp://p4p.arenabg.ch:1337/announce
  • http://tracker.vanitycore.co:6969/announce
  • http://public.popcorn-tracker.org:6969/announce
  • udp://tracker.zer0day.to:1337/announce