Originlab Originpro 9.1
The Lean StartupGuarda ultimo episodio
toddler retro 6 jordans

Rampage 2018 720p HDCAM x264 Dual Audio [Hindi (Cleaned) - Englis...

  • Category Movies
  • Type Dubs/Dual Audio
  • Language Hindi
  • Total size 1.0 GB
  • Uploaded By moviezworldz
  • Downloads 19869
  • Last checked 9 minutes ago
  • Date uploaded 3 days ago
  • Seeders 402
  • Leechers 364

Rampage

ActionAdventureScience Fiction

Primatologist Davis Okoye shares an unshakable bond with George, the extraordinarily intelligent, silverback gorilla who has been in his care since birth. But a rogue genetic experiment gone awry mutates this gentle ape into a raging creature of enormous size. To make matters worse, it’s soon discovered there are other similarly altered animals. As these newly created alpha predators tear across North America, destroying everything in their path, Okoye teams with a discredited genetic engineer to secure an antidote, fighting his way through an ever-changing battlefield, not only to halt a global catastrophe but to save the fearsome creature that was once his friend.

Infohash : 2A209D1ED5443AF7012297D7A9E465BA7D682E57





General
Format : Matroska
Format version : Version 4 / Version 2
File size : 1.02 GiB
Duration : 1 h 39 min
Overall bit rate : 1 459 kb/s

Video
ID : 1
Format : AVC
Format/Info : Advanced Video Codec
Format profile : [email protected]
Format settings : CABAC / 4 Ref Frames
Format settings, CABAC : Yes
Format settings, RefFrames : 4 frames
Codec ID : V_MPEG4/ISO/AVC
Duration : 1 h 39 min
Bit rate : 1 200 kb/s
Width : 1 280 pixels
Height : 608 pixels
Display aspect ratio : 2.105
Frame rate mode : Constant
Frame rate : 29.970 (30000/1001) FPS
Color space : YUV
Chroma subsampling : 4:2:0
Bit depth : 8 bits
Scan type : Progressive
Bits/(Pixel*Frame) : 0.051
Stream size : 855 MiB (82%)
Writing library : x264 core 155 r2893 b00bcaf
Default : Yes
Forced : No

Audio #1
ID : 2
Format : AAC
Format/Info : Advanced Audio Codec
Format profile : LC
Codec ID : A_AAC-2
Duration : 1 h 39 min
Bit rate : 128 kb/s
Channel(s) : 2 channels
Channel positions : Front: L R
Sampling rate : 48.0 kHz
Frame rate : 46.875 FPS (1024 SPF)
Compression mode : Lossy
Stream size : 91.2 MiB (9%)
Language : Hindi
Default : Yes
Forced : No

Audio #2
ID : 3
Format : AAC
Format/Info : Advanced Audio Codec
Format profile : LC
Codec ID : A_AAC-2
Duration : 1 h 39 min
Bit rate : 128 kb/s
Channel(s) : 2 channels
Channel positions : Front: L R
Sampling rate : 48.0 kHz
Frame rate : 46.875 FPS (1024 SPF)
Compression mode : Lossy
Stream size : 91.2 MiB (9%)
Language : English
Default : No
Forced : No
















Files:

Rampage 2018 720p HDCAM x264 Dual Audio [Hindi (Cleaned) - English] [MW]
  • Rampage 2018 720p HDCAM x264 Dual Audio [Hindi (Cleaned) - English] [MW].mkv (1.0 GB)

Comments

Code:

  • udp://tracker.pirateparty.gr:6969/announce
  • udp://tracker.opentrackr.org:1337/announce
  • udp://tracker.opentrackr.org:80/announce
  • udp://tracker.vanitycore.co:6969/announce
  • udp://public.popcorn-tracker.org:6969/announce
  • udp://9.rarbg.to:2720/announce
  • udp://9.rarbg.me:2740/announce
  • udp://9.rarbg.com:2790/announce
  • udp://inferno.demonoid.pw:3391/announce
  • udp://tracker.internetwarriors.net:1337/announce
  • udp://ipv4.tracker.harry.lu:80/announce
  • udp://p4p.arenabg.ch:1337/announce
  • http://tracker.vanitycore.co:6969/announce
  • http://public.popcorn-tracker.org:6969/announce
  • udp://tracker.zer0day.to:1337/announce
  • udp://tracker.leechers-paradise.org:6969/announce
  • udp://coppersurfer.tk:6969/announce