Thám Tử Lừng Danh Conan chap 467 | El Extranjero BluRayRip AC3 5.1 | PersonalisatieJohn Legend | 8 мая 2018 | Coco (2017)[MicroHD...

Avengers Infinity War (2018) Dual Audo Hindi[Cleaned] 720p HDTS x...

  • Category Movies
  • Type Dubs/Dual Audio
  • Language Hindi
  • Total size 1,006.8 MB
  • Uploaded By ExtraMovies
  • Downloads 67
  • Last checked 5 minutes ago
  • Date uploaded 5 minutes ago
  • Seeders 0
  • Leechers 0

Infohash : F694946594EC58C5BAAF8EDF829924942361D3C7


Movie Info

Format                                   : Matroska
Format version                           : Version 4 / Version 2
File size                                : 1 007 MiB
Duration                                 : 2 h 17 min
Overall bit rate                         : 1 027 kb/s
Movie name                               : ExtraMovies.cc - Avengers: Infinity War (2018) 720p HDTS Dual Audii Hindi(Cleaned)+ Eng x264 AAC
Encoded date                             : UTC 2018-04-27 12:02:30
Writing application                      : mkvmerge v20.0.0 ('I Am The Sun') 64-bit
Writing library                          : libebml v1.3.5 + libmatroska v1.4.8

Video
ID                                       : 1
Format                                   : AVC
Format/Info                              : Advanced Video Codec
Format profile                           : [email protected]
Format settings                          : CABAC / 8 Ref Frames
Format settings, CABAC                   : Yes
Format settings, RefFrames               : 8 frames
Codec ID                                 : V_MPEG4/ISO/AVC
Duration                                 : 2 h 17 min
Bit rate                                 : 800 kb/s
Width                                    : 1 280 pixels
Height                                   : 544 pixels
Display aspect ratio                     : 2.35:1
Frame rate mode                          : Variable
Frame rate                               : 23.976 (24000/1001) FPS
Color space                              : YUV
Chroma subsampling                       : 4:2:0
Bit depth                                : 8 bits
Scan type                                : Progressive
Bits/(Pixel*Frame)                       : 0.048
Stream size                              : 785 MiB (78%)
Title                                    : ExtraMovies.cc
Writing library                          : x264 core 142 r2479 dd79a61
Encoding settings                        : cabac=1 / ref=8 / deblock=1:0:0 / analyse=0x3:0x113 / me=umh / subme=9 / psy=1 / psy_rd=1.00:0.00 / mixed_ref=1 / me_range=16 / chroma_me=1 / trellis=2 / 8x8dct=1 / cqm=0 / deadzone=21,11 / fast_pskip=1 / chroma_qp_offset=-2 / threads=12 / lookahead_threads=1 / sliced_threads=0 / nr=0 / decimate=1 / interlaced=0 / bluray_compat=0 / constrained_intra=0 / bframes=3 / b_pyramid=2 / b_adapt=2 / b_bias=0 / direct=3 / weightb=1 / open_gop=0 / weightp=2 / keyint=240 / keyint_min=24 / scenecut=40 / intra_refresh=0 / rc_lookahead=40 / rc=2pass / mbtree=1 / bitrate=800 / ratetol=1.0 / qcomp=0.60 / qpmin=0 / qpmax=69 / qpstep=4 / cplxblur=20.0 / qblur=0.5 / vbv_maxrate=62500 / vbv_bufsize=78125 / nal_hrd=none / filler=0 / ip_ratio=1.40 / aq=1:1.00
Default                                  : Yes
Forced                                   : No
Color range                              : Limited
Color primaries                          : BT.709
Transfer characteristics                 : BT.709
Matrix coefficients                      : BT.709

Audio #1
ID                                       : 2
Format                                   : AAC
Format/Info                              : Advanced Audio Codec
Format profile                           : LC
Codec ID                                 : A_AAC-2
Duration                                 : 2 h 17 min
Bit rate                                 : 128 kb/s
Channel(s)                               : 2 channels
Channel positions                        : Front: L R
Sampling rate                            : 48.0 kHz
Frame rate                               : 46.875 FPS (1024 SPF)
Compression mode                         : Lossy
Delay relative to video                  : -117 ms
Stream size                              : 126 MiB (12%)
Title                                    : ExtraMovies.cc
Language                                 : Hindi
Default                                  : Yes
Forced                                   : No

Audio #2
ID                                       : 3
Format                                   : AAC
Format/Info                              : Advanced Audio Codec
Format profile                           : HE-AAC / LC
Format settings                          : NBC
Codec ID                                 : A_AAC-5
Duration                                 : 2 h 17 min
Bit rate                                 : 96.0 kb/s
Channel(s)                               : 2 channels
Channel positions                        : Front: L R
Sampling rate                            : 48.0 kHz / 24.0 kHz
Frame rate                               : 23.438 FPS (1024 SPF)
Compression mode                         : Lossy
Delay relative to video                  : -105 ms
Stream size                              : 94.2 MiB (9%)
Title                                    : ExtraMovies.cc
Language                                 : English
Default                                  : No
Forced                                   : No












Note* Hindi Audio Is Cleaned And Perfectly Synced With The Video
Audio Source: OWN


Files:

Avengers Infinity War (2018) Dual Audo Hindi[Cleaned] 720p HDTS x264 AAC - ExtraMovies
  • Avengers Infinity War (2018) Dual Audo Hindi[Cleaned] 720p HDTS x264 AAC - ExtraMovies.mkv (1,006.8 MB)
  • ExtraMovies.cc.txt (0.0 KB)

There are currently no comments. Feel free to leave one :)

Code:

  • udp://tracker.coppersurfer.tk:6969/announce